Как сохранить видео с Торрент-ТВ

Торрент-ТВПару недель назад снова пришлось смотреть сериал в записи с ТВ-эфира, потому что время показа не совсем удобное, а соответствующие раздачи не появились вовремя. И будут ли торренты вообще, к сожалению уверенности не было. Пару дней удавалось смотреть с Дебилизатора, но потом он стал выдавать сообщение о том, что "контент недоступен в вашей стране". Ещё есть Кабан.ТВ, но там архив вообще стал платны� �. Так что пришлось искать альтернативу. И, к счастью, по крайней мере один [пока ещё] работающий телевизионный архив есть — сайт Торрент-ТВ. Как видно из названия, тут уже всё гораздо интересней, чем просто архивы на серверах: вместо этого трансляции работают по принципу P2P. Хотя в этом есть минус — также, как и с Дебилизатором, реально посмотреть/записать можно далеко не всё, ведь трансляции ведут сами пользователи сайта. И делают это когда хотят. Но и плюсы тоже есть: видео чуть получше, буферизация практически отсутствует, а перемотка почти мгновенная. К тому же, процесс записи тут гораздо проще, и, в общем-то, стоит только начать пользоваться, и можно дальше не читать — всё сразу станет понятно. Но всё-таки некоторые тонкости есть. Поэтому сегодняшняя статья о том, как сохранить эфир оттуда. Шаг 1 Торрент-ТВ работает на технологии Ace Stream (ранее — Torrent Stream), а не на флэше, поэтому без установки дополнительного софта не обойтись. Установите пакет Ace Stream Media 3.0. В него входит мод плеера VLC двух версий: 1.1.x и 2.0.x, я выбрал вторую, поэтому далее все инструкции для него. Работу старой версии я не проверял. Что приятно, доступны торренты дистрибутивов. Лучше уставить ВСЕ компоненты. Настройка никакая не нужна, кроме того, что не мешает проверить, достаточно ли свободного места на диске, который выбран для кэша. Если вы находитесь за роутером, может понадобится открыть порт, вбитый в настройках программы. Но это обычная практика для P2P-софта. После установки можно проверить работу на тестовой странице.
Шаг 2 Архив ТВ находится здесь. Есть список каналов и календарь. А записывать будем "Сверхъестественное", отсюда: http://torrent-tv.ru/tv-archive-online.php?record=388212755 После того как начнётся воспроизведение через контекстное меню плеера нужно скопировать Content ID видео:

Торрент-ТВ - Content-ID


По поводу времени одной записи. Ещё одно отличие от Дебилизатора в том, что тут оно не пишется. Но составляет ровно столько, сколько написано в программе. Поэтому записать целую передачу за один раз может быть невозможно, потому что реальное время показа как правило не совпадает с часами, а избытка продолжительности записи нет. После копирования Content ID браузер можно закрыть — он больше не нужен.
Шаг 3 Запустите Ace Player HD. Через меню Медиа - Конвертировать/сохранить... откройте окно Источник и на новой (по сравнению с VLC) вкладке Ace Stream вставьте Content ID, затем нажмите кнопку Конвертировать/сохранить. Следующее окно нужно настроить так:

VLC - Конвертировать


Важно: расширение файла должно быть .ts и профиль нужно выбрать именно указанный (самый верхний), хоть конвертирование выключено, иначе файл почему-то получается пустым.
Шаг 4 При длительности 1 час 15 мин, размер файла получился 1,15 ГБ. Формат видео: [spoiler name="MPEG-TS, AVC, MP3"] General ID : 48559 (0xBDAF) Complete name : E:\Supernatural_s09e04-05.ts Format : MPEG-TS File size : 1.15 GiB Duration : 1h 44mn Overall bit rate mode : Variable Overall bit rate : 1 573 Kbps Video ID : 200 (0xC8) Menu ID : 1 (0x1) Format : AVC Format/Info : Advanced Video Codec Format profile : High@L3.0 Format settings, CABAC : Yes Format settings, ReFrames : 4 frames Codec ID : 27 Duration : 1h 44mn Bit rate : 1 372 Kbps Width : 720 pixels Height : 576 pixels Display aspect ratio : 4:3 Frame rate : 25.000 fps Standard : PAL Color space : YUV Chroma subsampling : 4:2:0 Bit depth : 8 bits Scan type : Progressive Bits/(Pixel*Frame) : 0.132 Stream size : 1.00 GiB (87%) Writing library : x264 core 124 Encoding settings : cabac=1 / ref=1 / deblock=1:-1:-1 / analyse=0x3:0x13 / me=dia / subme=1 / psy=1 / psy_rd=1.00:0.15 / mixed_ref=0 / me_range=16 / chroma_me=1 / trellis=0 / 8x8dct=1 / cqm=0 / deadzone=21,11 / fast_pskip=1 / chroma_qp_offset=0 / threads=8 / sliced_threads=0 / nr=0 / decimate=1 / interlaced=0 / bluray_compat=0 / constrained_intra=0 / bframes=3 / b_pyramid=2 / b_adapt=1 / b_bias=0 / direct=1 / weightb=1 / open_gop=0 / weightp=1 / keyint=60 / keyint_min=6 / scenecut=40 / intra_refresh=0 / rc_lookahead=0 / rc=cbr / mbtree=0 / bitrate=1372 / ratetol=1.0 / qcomp=0.60 / qpmin=10 / qpmax=51 / qpstep=4 / vbv_maxrate=1372 / vbv_bufsize=1500 / nal_hrd=none / ip_ratio=1.40 / pb_ratio=1.30 / aq=1:1.00 Audio ID : 300 (0x12C) Menu ID : 1 (0x1) Format : MPEG Audio Format version : Version 1 Format profile : Layer 3 Mode : Joint stereo Mode extension : MS Stereo Codec ID : 3 Duration : 1h 44mn Bit rate mode : Constant Bit rate : 128 Kbps Channel(s) : 2 channels Sampling rate : 44.1 KHz Compression mode : Lossy Delay relative to video : -32ms Stream size : 96.0 MiB (8%) Language : Russian [/spoiler] Дальнейшие действия аналогичны, поэтому читайте прошлогодний пост про запись с Дебилизатора (шаги 4 и 5). (да кстати, записать оттуда всё ещё можно — читайте комменты)
В итоге... На этот раз никакой возни с плейлистами и всё гораздо проще, правда?

Комментарии

Популярные сообщения из этого блога

WordPress-плагин: Embed Odnoklassniki Video (встраивание видео с Одноклассников)

Как восстановить подключение к сетевым дискам в Windows

Как отключить MTP в Android